Where You Watch

Killers Anonymous

November 09, 2018

Where You Watch doesn’t allow download links or streams. We only report where and when they are online.


Movie info

TITLE
Confirmed and upcoming movie titles only! Search before adding to avoid dupes.
Killers Anonymous
YEAR
The year the movie is set to be released.
2018
DIRECTOR
GENRE
Pick one or multiple movie genres.
DESCRIPTION
New movie from director Martin Owen featuring Oscar winner Gary Oldman and Jessica Alba.
WHERE YOU WATCH




Reports

Is Killers Anonymous available online? Yes. Reports of pirated torrents and streams are available below.
When will Killers Anonymous be available on digital platforms like iTunes or Amazon? As of now, there's no release data announced. This includes iTunes, Amazon, Blu-Ray or DVD.

June 28, 2019
Killers.Anonymous.2019.1080p.AMZN.WEBRip.DDP5.1.x264-NTG
Quality: 5/5 | Source: Official web stream
Submitted by: Mr. Meeseeks | Trust Rank level: Supreme Member
Format: Torrent | Site: RARBG
Video ID : 1 Format : AVC Format/Info : Advanced Video Codec Format profile : High@L4 Format settings : CABAC / 4 Ref Frames Format settings, CABAC : Yes Format settings, ReFrames : 4 frames Codec ID : V_MPEG4/ISO/AVC Duration : 1 h 35 min Bit rate mode : Constant Bit rate : 8 538 kb/s Nominal bit rate : 10 000 kb/s Width : 1 920 pixels Height : 816 pixels Display aspect ratio : 2.35:1 Frame rate mode : Constant Frame rate : 23.976 (24000/1001) FPS Color space : YUV Chroma subsampling : 4:2:0 Bit depth : 8 bits Scan type : Progressive Bits/(Pixel*Frame) : 0.227 Stream size : 5.72 GiB (93%) Default : Yes Forced : No Color range : Limited Color primaries : BT.709 Transfer characteristics : BT.709 Matrix coefficients : BT.709 Audio ID : 2 Format : E-AC-3 Format/Info : Enhanced AC-3 Commercial name : Dolby Digital Plus Codec ID : A_EAC3 Duration : 1 h 35 min Bit rate mode : Constant Bit rate : 640 kb/s Channel(s) : 6 channels Channel layout : L R C LFE Ls Rs Sampling rate : 48.0 kHz Frame rate : 31.250 FPS (1536 SPF) Compression mode : Lossy Stream size : 439 MiB (7%) Language : English Service kind : Complete Main Default : Yes Forced : No Text #1 ID : 3 Format : UTF-8 Codec ID : S_TEXT/UTF8 Codec ID/Info : UTF-8 Plain Text Duration : 1 h 28 min Bit rate : 68 b/s Count of elements : 1353 Stream size : 44.3 KiB (0%) Language : English Default : No Forced : No Text #2 ID : 4 Format : UTF-8 Codec ID : S_TEXT/UTF8 Codec ID/Info : UTF-8 Plain Text Duration : 1 h 28 min Bit rate : 74 b/s Count of elements : 1502 Stream size : 48.5 KiB (0%) Title : SDH Language : English Default : No Forced : No

Is Killers Anonymous available online? Yes. Reports of pirated torrents and streams are available below.
When will Killers Anonymous be available on digital platforms like iTunes or Amazon? As of now, there's no release data announced. This includes iTunes, Amazon, Blu-Ray or DVD.