If I Can't Have Love, I Want Power

If I Can't Have Love, I Want Power

Mr. MeeseeksMr. Meeseeks   October 07, 2021  
Add to list
If I Can't Have Love, I Want Power

Movie info

Title
Confirmed and upcoming movie titles only! Search before adding to avoid dupes.
If I Can't Have Love, I Want Power
Year
The year the movie is set to be released.
2021
Director
Colin Tilley
Genre
Pick one or multiple movie genres.
Digital release
Official digital release date on services such as iTunes, Amazon, Netflix. It's the first known release date, without any country restriction. So if it's out on iTunes Russia first, this would be the digital release date.
October 07, 2021
Description
A film by director Colin Tilley made in cross-promotion with Halsey's fourth studio album of the same name. The screenplay is written by the singer, who also stars in the film.
Where you watch

Where you watch Email alert

Yes, it is available and reported below. Use the alert button to get notified when higher quality versions are available.

Download and stream reports

Is there a If I Can't Have Love, I Want Power torrent? Yes. Reports are available below.
When will If I Can't Have Love, I Want Power be available on VOD? It's set for a October 07, 2021 release.

October 07, 2021
Halsey.If.I.Cant.Have.Love.I.Want.Power.2021.1080p.HMAX.WEBRip.DD5.1.x264-FLUX
Video and audio quality: 5/5 | Source: Official web stream

Submitted by: Mr. Meeseeks | Trust Rank level: Supreme Member
Format: Torrent | Site: RARBG
Video ID : 1 Format : AVC Format/Info : Advanced Video Codec Format profile : High@L4 Format settings : CABAC / 4 Ref Frames Format settings, CABAC : Yes Format settings, Reference frames : 4 frames Codec ID : V_MPEG4/ISO/AVC Duration : 50 min 4 s Bit rate mode : Variable Bit rate : 8 250 kb/s Maximum bit rate : 12.4 Mb/s Width : 1 920 pixels Height : 1 080 pixels Display aspect ratio : 16:9 Frame rate mode : Constant Frame rate : 23.976 (24000/1001) FPS Color space : YUV Chroma subsampling : 4:2:0 Bit depth : 8 bits Scan type : Progressive Bits/(Pixel*Frame) : 0.166 Stream size : 2.87 GiB (96%) Writing library : x264 core 157 r2965 861cec4 Encoding settings : cabac=1 / ref=4 / deblock=1:0:0 / analyse=0x3:0x113 / me=hex / subme=7 / psy=1 / psy_rd=1.00:0.00 / mixed_ref=1 / me_range=16 / chroma_me=1 / trellis=1 / 8x8dct=1 / cqm=0 / deadzone=21,11 / fast_pskip=1 / chroma_qp_offset=-2 / threads=34 / lookahead_threads=5 / sliced_threads=0 / nr=0 / decimate=1 / interlaced=0 / bluray_compat=0 / constrained_intra=0 / bframes=3 / b_pyramid=2 / b_adapt=1 / b_bias=0 / direct=1 / weightb=1 / open_gop=0 / weightp=2 / keyint=96 / keyint_min=96 / scenecut=40 / intra_refresh=0 / rc_lookahead=40 / rc=2pass / mbtree=1 / bitrate=8250 / ratetol=1.0 / qcomp=0.60 / qpmin=0 / qpmax=69 / qpstep=4 / cplxblur=20.0 / qblur=0.5 / vbv_maxrate=12375 / vbv_bufsize=6187 / nal_hrd=vbr / filler=0 / ip_ratio=1.40 / aq=1:1.00 Default : Yes Forced : No Color range : Limited Color primaries : BT.709 Transfer characteristics : BT.709 Matrix coefficients : BT.709 Audio ID : 2 Format : AC-3 Format/Info : Audio Coding 3 Commercial name : Dolby Digital Codec ID : A_AC3 Duration : 50 min 4 s Bit rate mode : Constant Bit rate : 384 kb/s Channel(s) : 6 channels Channel layout : L R C LFE Ls Rs Sampling rate : 48.0 kHz Frame rate : 31.250 FPS (1536 SPF) Compression mode : Lossy Stream size : 138 MiB (4%) Language : English Service kind : Complete Main Default : Yes Forced : No Text #1 ID : 3 Format : UTF-8 Codec ID : S_TEXT/UTF8 Codec ID/Info : UTF-8 Plain Text Duration : 38 min 14 s Bit rate : 8 b/s Count of elements : 80 Stream size : 2.38 KiB (0%) Language : English Default : No Forced : No Text #2 ID : 4 Format : UTF-8 Codec ID : S_TEXT/UTF8 Codec ID/Info : UTF-8 Plain Text Duration : 49 min 55 s Bit rate : 53 b/s Count of elements : 592 Stream size : 19.6 KiB (0%) Title : SDH Language : English Default : No Forced : No

Videos Add media

If I Can't Have Love, I Want Power | Official Trailer | HBO Max
If I Can't Have Love, I Want Power | Official Trai...