Where You Watch

Fighting with My Family

December 11, 2017

Where You Watch doesn’t allow download links or streams. We only report where and when they are online.


Movie info

TITLE
Confirmed and upcoming movie titles only! Search before adding to avoid dupes.
Fighting with My Family
YEAR
The year the movie is set to be released.
2019
GENRE
Pick one or multiple movie genres.
CINEMA
First cinema release date in any country.
March 01, 2019
DESCRIPTION
Dwayne Johnson’s company ‘Seven Bucks Productions’ has taken on quite a few big budget projects recently, but 2019’s “Fighting with My Family” is far from a blockbuster action flick. Heading back to his roots of professional wrestling, it follows the life of Saraya Bevis, known to most by her stage name ‘Paige’, and her unlikely journey to becoming the youngest woman to earn a championship title in the history of World Wrestling Entertainment. Everything about her up-bringing could be defined as unconventional, she was raised by two parents running an independent wrestling promotion, watching firsthand as they suffered countless injuries. Her parents allowed her to begin training when she was only a pre-teen, and would make her debut when she was only thirteen years of age. At age ninteen, she would sign her contract with the largest sports entertainment company in the world, where she would make history only two years later.

Florence Pugh (Lady Macbeth) stars in the lead role, while her parents, Julia and Patrick, will be portrayed by Lena Beadley, and Nick Frost respectively. ‘The Rock’ will play a small role as his father Rocky Johnson, while Vince Vaughn has signed on to be iconic wrestling villain Jake ‘The Snake’ Roberts. Asides from Johnson, the only trained wrestler confirmed to be in the film is Thea Trinidad, cast as Paige’s “rival” in WWE, AJ Lee. This one hits theaters March 1st, 2019, written and directed by Stephen Merchant, who will act as a minor character in the film.
WHERE YOU WATCH




Reports

Is Fighting with My Family available online? Yes. Reports of pirated torrents and streams are available below.
When will Fighting with My Family be available on digital platforms like iTunes or Amazon? As of now, there's no release data announced. This includes iTunes, Amazon, Blu-Ray or DVD.

May 04, 2019
Fighting.with.My.Family.2019.1080p.BluRay.x264-GECKOS
Quality: 5/5 | Source: BluRay
Submitted by: Mr. Meeseeks | Trust Rank level: Supreme Member
Format: Torrent | Site: RARBG
X264 bitrate : 8588Kbps Resolution : 1920x800 Size : 7826MB (8206360390 Bytes) Audio : DTS 1509Kbps 6ch Language : English Subtitles : English Runtime : 1h 48mn
April 30, 2019
Fighting.with.My.Family.2019.720p.WEB-DL.XviD.AC3-FGT
Quality: 5/5 | Source: Official web stream
Submitted by: Mr. Meeseeks | Trust Rank level: Supreme Member
Format: Torrent | Site: RARBG
Video ID : 0 Format : MPEG-4 Visual Format profile : Simple@L5 Format settings, BVOP : No Format settings, QPel : No Format settings, GMC : No warppoints Format settings, Matrix : Default (H.263) Codec ID : XVID Codec ID/Hint : XviD Duration : 1 h 48 min Bit rate : 3 795 kb/s Width : 1 280 pixels Height : 530 pixels Display aspect ratio : 2.40:1 Frame rate : 23.976 (24000/1001) FPS Color space : YUV Chroma subsampling : 4:2:0 Bit depth : 8 bits Scan type : Progressive Compression mode : Lossy Bits/(Pixel*Frame) : 0.233 Stream size : 2.86 GiB (91%) Writing library : Lavc58.1.100 Audio ID : 1 Format : AC-3 Format/Info : Audio Coding 3 Commercial name : Dolby Digital Codec ID : 2000 Duration : 1 h 48 min Bit rate mode : Constant Bit rate : 384 kb/s Channel(s) : 6 channels Channel layout : L R C LFE Ls Rs Sampling rate : 48.0 kHz Frame rate : 31.250 FPS (1536 SPF) Bit depth : 16 bits Compression mode : Lossy Stream size : 297 MiB (9%) Alignment : Aligned on interleaves Interleave, duration : 42 ms (1.00 video frame) Interleave, preload duration : 512 ms Service kind : Complete Main
March 03, 2019
Fighting with My Family 2019 NEW 720p HD-TS-1XBET
Quality: 2/5 | Source: Camera with line audio
Submitted by: Costa | Trust Rank level: Hero member
Format: Torrent | Site: 1337x
Language: English Video: MPEG4 Video (H264) 1280x536 29.97fps 3076kbps Audio: Dolby AC3 48000Hz stereo 224kbps Note: Brand NEW Source. very good ;)
March 03, 2019
Fighting with My Family 2019 HDCAM WaTcHeRs
Quality: 1/5 | Source: Camera
Submitted by: Costa | Trust Rank level: Hero member
Format: Torrent | Site: torrentgalaxy
Note says: "FIRST on NET No one else has this You won't find this on kido special thanks to carson rice .and BJ cammed by: Barry Aka sanford marketed by: Carson Rice Purchase at 127th Alsip flea market "

Is Fighting with My Family available online? Yes. Reports of pirated torrents and streams are available below.
When will Fighting with My Family be available on digital platforms like iTunes or Amazon? As of now, there's no release data announced. This includes iTunes, Amazon, Blu-Ray or DVD.