Chick Fight

Chick Fight

Hot
Ivana 🌿Ivana 🌿   October 07, 2020  
Add to list
Chick Fight

Movie info

Title
Confirmed and upcoming movie titles only! Search before adding to avoid dupes.
Chick Fight
Year
The year the movie is set to be released.
2020
Director
Genre
Pick one or multiple movie genres.
Digital release
Official digital release date on services such as iTunes, Amazon, Netflix. It's the first known release date, without any country restriction. So if it's out on iTunes Russia first, this would be the digital release date.
November 13, 2020
Description
Starring Bella Thorne, Malin Åkerman, Alec Baldwin.
Where you watch

Where you watch Email alert

Yes, it is available and reported below. Use the alert button to get notified when higher quality versions are available.

Download and stream reports

Can I download or stream Chick Fight? Yes. Reports of pirated torrents and streams are available below.
When will Chick Fight be available on digital platforms like iTunes or Amazon? It's set for a November 13, 2020 release. This likely includes iTunes and Amazon unless it is an exclusive Netflix, or similar, release. Physical versions on Blu-Ray or DVD will likely follow.

November 14, 2020
Chick.Fight.2020.1080p.AMZN.WEBRip.DDP5.1.x264-NTG
Video and audio quality: 5/5 | Source: Official web stream

Submitted by: Mr. Meeseeks | Trust Rank level: Supreme Member
Format: Torrent | Site: RARBG
Video ID : 1 Format : AVC Format/Info : Advanced Video Codec Format profile : High@L4 Format settings : CABAC / 4 Ref Frames Format settings, CABAC : Yes Format settings, Reference frames : 4 frames Codec ID : V_MPEG4/ISO/AVC Duration : 1 h 37 min Bit rate mode : Constant Bit rate : 8 860 kb/s Nominal bit rate : 10 000 kb/s Width : 1 920 pixels Height : 800 pixels Display aspect ratio : 2.40:1 Frame rate mode : Constant Frame rate : 23.976 (24000/1001) FPS Color space : YUV Chroma subsampling : 4:2:0 Bit depth : 8 bits Scan type : Progressive Bits/(Pixel*Frame) : 0.241 Stream size : 6.02 GiB (93%) Default : Yes Forced : No Color range : Limited Color primaries : BT.709 Transfer characteristics : BT.709 Matrix coefficients : BT.709 Audio ID : 2 Format : E-AC-3 Format/Info : Enhanced AC-3 Commercial name : Dolby Digital Plus Codec ID : A_EAC3 Duration : 1 h 37 min Bit rate mode : Constant Bit rate : 640 kb/s Channel(s) : 6 channels Channel layout : L R C LFE Ls Rs Sampling rate : 48.0 kHz Frame rate : 31.250 FPS (1536 SPF) Compression mode : Lossy Stream size : 445 MiB (7%) Language : English Service kind : Complete Main Default : Yes Forced : No Text ID : 3 Format : UTF-8 Codec ID : S_TEXT/UTF8 Codec ID/Info : UTF-8 Plain Text Duration : 1 h 37 min Bit rate : 87 b/s Count of elements : 2305 Stream size : 62.4 KiB (0%) Title : SDH Language : English Default : No Forced : No

Videos Add media

CHICK FIGHT Official Trailer (2020) Bella Thorne, Alec Baldwin Movie HD
CHICK FIGHT Official Trailer (2020) Bella Thorne, ...