Where You Watch

Capernaum

November 15, 2018

Where You Watch doesn’t allow download links or streams. We only report where and when they are online.


Movie info

TITLE
Confirmed and upcoming movie titles only! Search before adding to avoid dupes.
Capernaum
YEAR
The year the movie is set to be released.
2018
GENRE
Pick one or multiple movie genres.
CINEMA
First cinema release date in any country.
May 17, 2018
DESCRIPTION
Capernaum or Capharnaüm ("Chaos") is written and directed by Lebanese actress turned director, Nadine Labaki. The film was premiered at Cannes Film Festival 2018 where it received a 15 minute standing ovation and it was awarded with a Jury Prize. It tells a story of Zain (Zain al Rafeea), a Lebanese boy taking his parents to court for the crime of... his own birth.
WHERE YOU WATCH




Reports

Is Capernaum available online? Yes. Reports of pirated torrents and streams are available below.
When will Capernaum be available on digital platforms like iTunes or Amazon? As of now, there's no release data announced. This includes iTunes, Amazon, Blu-Ray or DVD.

February 21, 2019
Capharnaum.2018.1080p.WEBRip.x264.AC3.HORiZON-ArtSubs
Quality: 5/5 | Source: Official web stream
Submitted by: Mavoy | Trust Rank level: Professional
Format: Torrent | Site: 1337x
Original Arabic language version, no subtitles yet General Complete name : Capharnaum.2018.1080p.WEBRip.x264.AC3.HORiZON-ArtSubs.mkv Format : Matroska Format version : Version 2 File size : 2.76 GiB Duration : 2 h 6 min Overall bit rate mode : Constant Overall bit rate : 3 123 kb/s Encoded date : UTC 2019-02-20 23:13:20 Writing application : DVDFab 10.0.8.7 Writing library : libebml v1.3.4 + libmatroska v1.4.5 Video ID : 1 Format : AVC Format/Info : Advanced Video Codec Format profile : High@L4 Format settings : CABAC / 1 Ref Frames Format settings, CABAC : Yes Format settings, RefFrames : 1 frame Format settings, GOP : M=1, N=24 Codec ID : V_MPEG4/ISO/AVC Duration : 2 h 6 min Bit rate mode : Constant Bit rate : 2 700 kb/s Width : 1 916 pixels Height : 804 pixels Display aspect ratio : 2.40:1 Frame rate mode : Constant Frame rate : 24.000 FPS Color space : YUV Chroma subsampling : 4:2:0 Bit depth : 8 bits Scan type : Progressive Bits/(Pixel*Frame) : 0.073 Stream size : 2.36 GiB (86%) Default : Yes Forced : No Color range : Limited Color primaries : BT.709 Transfer characteristics : BT.709 Matrix coefficients : BT.709 Audio ID : 2 Format : AC-3 Format/Info : Audio Coding 3 Codec ID : A_AC3 Duration : 2 h 6 min Bit rate mode : Constant Bit rate : 448 kb/s Channel(s) : 6 channels Channel positions : Front: L C R, Side: L R, LFE Sampling rate : 48.0 kHz Frame rate : 31.250 FPS (1536 SPF) Bit depth : 16 bits Compression mode : Lossy Stream size : 405 MiB (14%) Language : Arabic Service kind : Complete Main Default : Yes Forced : No

Is Capernaum available online? Yes. Reports of pirated torrents and streams are available below.
When will Capernaum be available on digital platforms like iTunes or Amazon? As of now, there's no release data announced. This includes iTunes, Amazon, Blu-Ray or DVD.