All the Bright Places

February 13, 2019

Movie info

Title
Confirmed and upcoming movie titles only! Search before adding to avoid dupes.
All the Bright Places
Year
The year the movie is set to be released.
2020
Director
Genre
Pick one or multiple movie genres.
Digital release
Official digital release date on services such as iTunes, Amazon, Netflix. It's the first known release date, without any country restriction. So if it's out on iTunes Russia first, this would be the digital release date.
February 28, 2020
Description
Starring Elle Fanning, Justice Smith, Alexandra Shipp, Keegan-Michael Key, and Luke Wilson.
Where you watch

Download and stream reports

Is All the Bright Places available online? Yes. Reports of pirated torrents and streams are available below.
When will All the Bright Places be available on digital platforms like iTunes or Amazon? It's set for a February 28, 2020 release. This likely includes iTunes and Amazon unless it is an exclusive Netflix, or similar, release. Physical versions on Blu-Ray or DVD will likely follow.

February 28, 2020
All.The.Bright.Places.2020.WEBRip.x264-ION10
Quality: 5/5 | Source: Official web stream
Submitted by: Mr. Meeseeks | Trust Rank level: Supreme Member
Format: Torrent | Site: RARBG
Video ID : 1 Format : AVC Format/Info : Advanced Video Codec Format profile : High@L3.1 Format settings : CABAC / 5 Ref Frames Format settings, CABAC : Yes Format settings, Reference frames : 5 frames Codec ID : avc1 Codec ID/Info : Advanced Video Coding Duration : 1 h 48 min Bit rate : 1 100 kb/s Width : 720 pixels Height : 300 pixels Display aspect ratio : 2.40:1 Frame rate mode : Constant Frame rate : 24.000 FPS Color space : YUV Chroma subsampling : 4:2:0 Bit depth : 8 bits Scan type : Progressive Bits/(Pixel*Frame) : 0.212 Stream size : 856 MiB (81%) Title : RARBG - All.The.Bright.Places.2020.WEBRip.x264-ION10 Writing library : x264 core 152 r2851M ba24899 Encoding settings : cabac=1 / ref=5 / deblock=1:-1:-1 / analyse=0x3:0x113 / me=umh / subme=9 / psy=1 / psy_rd=1.00:0.15 / mixed_ref=1 / me_range=16 / chroma_me=1 / trellis=2 / 8x8dct=1 / cqm=0 / deadzone=21,11 / fast_pskip=1 / chroma_qp_offset=-3 / threads=16 / lookahead_threads=1 / sliced_threads=0 / nr=0 / decimate=1 / interlaced=0 / bluray_compat=0 / constrained_intra=0 / bframes=3 / b_pyramid=2 / b_adapt=2 / b_bias=0 / direct=3 / weightb=1 / open_gop=0 / weightp=2 / keyint=250 / keyint_min=24 / scenecut=40 / intra_refresh=0 / rc_lookahead=50 / rc=2pass / mbtree=1 / bitrate=1100 / ratetol=1.0 / qcomp=0.60 / qpmin=0 / qpmax=69 / qpstep=4 / cplxblur=20.0 / qblur=0.5 / ip_ratio=1.40 / aq=1:1.00 Encoded date : UTC 2020-02-28 07:51:09 Tagged date : UTC 2020-02-28 07:51:09 Codec configuration box : avcC Audio ID : 2 Format : AAC LC Format/Info : Advanced Audio Codec Low Complexity Codec ID : mp4a-40-2 Duration : 1 h 48 min Duration_LastFrame : -11 ms Bit rate mode : Constant Bit rate : 256 kb/s Channel(s) : 2 channels Channel layout : L R Sampling rate : 48.0 kHz Frame rate : 46.875 FPS (1024 SPF) Compression mode : Lossy Stream size : 199 MiB (19%) Title : RARBG - All.The.Bright.Places.2020.WEBRip.x264-ION10 Language : English Default : Yes Alternate group : 1 Encoded date : UTC 2020-02-28 07:51:09 Tagged date : UTC 2020-02-28 07:51:09

Is All the Bright Places available online? Yes. Reports of pirated torrents and streams are available below.
When will All the Bright Places be available on digital platforms like iTunes or Amazon? It's set for a February 28, 2020 release.