Blood Machines

Blood Machines

Mr. MeeseeksMr. Meeseeks   May 01, 2020  
Add to list
Blood Machines

Movie info

Title
Confirmed and upcoming movie titles only! Search before adding to avoid dupes.
Blood Machines
Year
The year the movie is set to be released.
2020
Genre
Pick one or multiple movie genres.
Digital release
Official digital release date on services such as iTunes, Amazon, Netflix. It's the first known release date, without any country restriction. So if it's out on iTunes Russia first, this would be the digital release date.
May 21, 2020
Description
Starring Elisa Lasowski, Anders Heinrichsen, Noémie Stevens, Christian Erickson, Joëlle Berckmans, and Natasha Cashman.

A collaboration between Seth Ickerman, and Carpenter Brut, also known as "Turbo Killer 2".
Where you watch

Where you watch Email alert

Yes, it is available and reported below. Use the alert button to get notified when higher quality versions are available.

Download and stream reports

Can I download or stream Blood Machines? Yes. Reports of pirated torrents and streams are available below.
When will Blood Machines be available on digital platforms like iTunes or Amazon? It's set for a May 21, 2020 release. This likely includes iTunes and Amazon unless it is an exclusive Netflix, or similar, release. Physical versions on Blu-Ray or DVD will likely follow.

May 22, 2020
Blood.Machines.2019.1080p.AMZN.WEBRip.DDP2.0.x264-NTG
Video and audio quality: 5/5 | Source: Official web stream

Submitted by: Mr. Meeseeks | Trust Rank level: Supreme Member
Format: Torrent | Site: RARBG
Video ID : 1 Format : AVC Format/Info : Advanced Video Codec Format profile : High@L4 Format settings : CABAC / 4 Ref Frames Format settings, CABAC : Yes Format settings, Reference frames : 4 frames Codec ID : V_MPEG4/ISO/AVC Duration : 21 min 9 s Bit rate mode : Constant Bit rate : 10 000 kb/s Width : 1 920 pixels Height : 800 pixels Display aspect ratio : 2.40:1 Frame rate mode : Constant Frame rate : 25.000 FPS Color space : YUV Chroma subsampling : 4:2:0 Bit depth : 8 bits Scan type : Progressive Bits/(Pixel*Frame) : 0.260 Stream size : 1.44 GiB (98%) Default : Yes Forced : No Color range : Limited Color primaries : BT.709 Transfer characteristics : BT.709 Matrix coefficients : BT.709 Audio ID : 2 Format : E-AC-3 Format/Info : Enhanced AC-3 Commercial name : Dolby Digital Plus Codec ID : A_EAC3 Duration : 21 min 9 s Bit rate mode : Constant Bit rate : 224 kb/s Channel(s) : 2 channels Channel layout : L R Sampling rate : 48.0 kHz Frame rate : 31.250 FPS (1536 SPF) Compression mode : Lossy Stream size : 33.9 MiB (2%) Language : English Service kind : Complete Main Default : Yes Forced : No

Videos Add media

BLOOD MACHINES - Final Trailer (Shudder)
BLOOD MACHINES - Final Trailer (Shudder)